Rapidshare Files Search Engine
Add to Bookmark
| Anime | Games | Movies | Music | Other | Software |

Hollywood Homicide (2003) - DVDRip - MP3 - ENG free download


query "hollywood homicide (2003) - dvdrip - mp3 - eng" retrieved 1 strong match
Download

Download File!


Downloads: 2369
Sponsored link:     Hollywood Homicide (2003) - DVDRip - MP3 - ENG [FAST DOWNLOAD]

File Details
Name: Hollywood Homicide (2003) - DVDRip - MP3 - ENG
Saved From: rapidshare.com
Category: Movies - Action
Size: 704 MB
Date Add: October 01, 2008
Files:
Hollywood Homicide (2003) - DVDRip - MP3 - ENG.avi - 704 MB
Hollywood Homicide (2003) - DVDRip - MP3 - ENG.nfo - 11.6 KB
Tracked_by_Demonoid_com.txt - 0 KB
Comments:



IMDB: http://www.imdb.com/title/tt0329717
User Rating: 5.2/10 (12,799 votes)
Release Date: 29 August 2003 (UK)
Genre: Action | Comedy | Crime | Thriller

Tagline: In Hollywood, no one is who they really want to be.

When not solving murders in Tinseltown, Detective Joe Gavilan and his rookie partner Kasey Calden
both moonlight in other fields: Gavilan sells real estate (poorly), and Calden aspires to become
an actor (Brando, namely). Assigned to the vicious in-club slaying of a promising young rap act, the
two detective delve into the recording industry where they hope to find answers - ideally ones
that also come with property buyers or auditions.

Cast:

Harrison Ford
...
Sgt. Joe Gavilan
Josh Hartnett
...
Det. K.C. Calden
Lena Olin
...
Ruby
Bruce Greenwood
...
Lt. Bennie Macko
Isaiah Washington
...
Antoine Sartain
Lolita Davidovich
...
Cleo Ricard
Keith David
...
Leon
Master P
...
Julius Armas
Gladys Knight
...
Olivia Robidoux
Lou Diamond Phillips
...
Wanda
Meredith Scott Lynn
...
I.A. Detective Jackson
Tom Todoroff
...
I.A. Detective Zino
James MacDonald
...
Danny Broome
Kurupt
...
K-Ro
André Benjamin ...
Silk Brown (as Andre Benjamin)




General
Complete name : Hollywood Homicide.avi
Format : AVI
Source : PAL DVD
File size : 704 MiB
Duration : 1h 51mn
Overal bit rate : 885 Kbps
IAS1 : English

Video
Format : MPEG-4 Visual
Codec ID : XVID
Duration : 1h 51mn
Bit rate : 766 Kbps
Width : 608 pixels
Height : 256 pixels
Display aspect ratio : 2.35
Frame rate : 25.000 fps
Resolution : 8 bits
Colorimetry : 4:2:0
Scan type : Progressive
Bits/(Pixel*Frame) : 0.197
Stream size : 610 MiB (87%)

Audio
Format : MPEG Audio
Format version : Version 1
Format profile : Layer 3
Codec ID : 55
Codec ID/Hint : MP3
Duration : 1h 51mn
Bit rate mode : Constant
Bit rate : 112 Kbps
Minimum bit rate : 112 Kbps
Channel(s) : 2 channels
Sampling rate : 44.1 KHz
Resolution : 16 bits
Stream size : 89.1 MiB (13%)
Writing library : LAME3.97
Encoding settings : CBR

Trackers:

http://www.torrent-downloads.to:5869/announce
http://open.tracker.thepiratebay.org:80/announce
http://tpb.tracker.thepiratebay.org:80/announce
http://vip.tracker.thepiratebay.org/announce


Info Hash:

682B1C594F2FFD1A6D9DDCA7AFD98E53879295A2





Tags: Hollywood, Homicide, 2003, DVDRip
Hollywood Homicide (2003) - DVDRip - MP3 - ENG available for free download. This file was checked and may be stored on our servers or rapidshare.com. Please do not use serial numbers, password, crack, key generators of Hollywood Homicide (2003) - DVDRip - MP3 - ENG it's illegal and this file will be removed if we found that.

Related Files

Downloads
Download File Hollywood Homicide (2003) - DVDRip - MP3 - ENG
Hollywood Homicide 2003IMDB: http://www.imdb.com/title/tt0329717User Rating: 5.2/10... 704 MB
1957
Download File Hollywood Homicide(2003)DVDrip(Eng)AC3(5 1)-
1407 MB
1854
Download File Thom Yorke & Jonny Greenwood - 2003-09-29 Capitol Records Studio, Hollywood, CA, US (SBD)
Thom Yorke / Jonny GreenwoodCapitol RecordsHollywood, CA USASeptember 29, 2003 SBD... 185 MB
2369
Download File Thom Yorke & Jonny Greenwood - 2003-09-29 Capitol Records Studio; Hollywood, CA, US
Thom Yorke / Jonny GreenwoodCapitol RecordsHollywood, CA USASeptember 29, 2003SBD... 185 MB
2472
Download File Hollywood Holt-Hollywood Bw Ode To Relationships-VLS-2009-djleak
Torrent Details:Category : Music - Rap/Hiphop Added : 0 seconds agoSeeds :... 28 MB
3193
Download File DJ Khaled -DJ Dyce-Hollywood - True Hollywood Stories
http://www.myspace.com/ho11ywood8031.Intro2.100 Miles & Runnin - Hollywood,... 72 MB
3296
Download File Sue Grafton - H Is For Homicide
Unabridged 116 MB
206
Download File Homicide-Life on the Street - OST
Music from the television series Homicide: Life on the Street 290 MB
1854
Download File ! 999 - Homicide - Best of - 1999 [www spynova org]
More Quality Torrents at www.spynova.org 53 MB
824
Download File Java Web Services Architecture
14 MB
618
Download File Videodrome.1983.WS.DVDRip.XviD-AXIA
719 MB
721
Download File Beginning Apache Struts - From Novice To Professional
6.2 MB
618
Download File He-Man (Master del Universo)DVDRIP-
689 MB
515
Download File Desperation Stephen King DVD-PAL [www DVDQuorum es]
4481 MB
618
Download File Many Happy Returns - The Hits
70 MB
618
Download File Jesse.Stone.Night.Passage.2006.SWESUB.DVDRip.Xvid-pirat
694 MB
618
Download File The Blues Collection Vol 83 - Jimmy Johnson
77 MB
515
Download File Jack Johnson - In Between Dreams.rar
56 MB
515
Download File Quino - 5 Libros - [by arky]
Five brilliant books of one great cartoonist. Mafalda is the best known creation of... 251 MB
824
cSoftCorp.com is a search engine designed to search files.
Copyright © 2018 cSoftCorp. All Right Reserved. Privacy | DMCA Policy