Rapidshare Files Search Engine
Add to Bookmark
| Anime | Games | Movies | Music | Other | Software |

Dan Rather Reports - Israel's High Tech Industry (High Qualit free download


query "dan rather reports - israel's high tech industry (high qualit" retrieved 1 strong match
Download

Download File!


Downloads: 3193
Sponsored link:     Dan Rather Reports - Israel's High Tech Industry (High Qualit [FAST DOWNLOAD]

File Details
Name: Dan Rather Reports - Israel's High Tech Industry (High Qualit
Saved From: rapidshare.com
Category: Movies - Unsorted
Size: 109 MB
Date Add: December 30, 2008
Files:
Dan.Rather.Reports.Israel's.Whiz.Kids.714x356.xvid.mp3-snach.avi - 109 MB
Comments:



Dan Rather Reports - Israel's High Tech Industry
High Quality

Program Info:
Whiz Kids - Israel and its amazing contributions to the high tech world.
^their description, not mine

Less than 10 minutes, short look at their version of silicon valley. These "whiz kids" are starting to spread out around the world. What will this mean for the future?
-snach

Video Info:
Dan.Rather.Reports.Israel's.Whiz.Kids.714x356.xvid.mp3-snach.avi

Format : AVI
Format/Info : Audio Video Interleave
File size : 109 MiB
Duration : 9mn 47s
Overal bit rate : 1554 Kbps
Writing application : MediaCoder 0.6

Video
Format : MPEG-4 Visual
Format profile : Streaming Video@L1
Format settings, BVOP : No
Format settings, QPel : No
Format settings, GMC : 3 warppoints
Format settings, Matrix : Default
Codec ID : XVID
Codec ID/Hint : XviD
Duration : 9mn 47s
Bit rate : 1444 Kbps
Width : 714 pixels
Height : 356 pixels
Display aspect ratio : 16/9
Frame rate : 29.970 fps
Resolution : 8 bits
Colorimetry : 4:2:0
Scan type : Progressive
Bits/(Pixel*Frame) : 0.190
Stream size : 101 MiB
Writing library : XviD 1.2.0.dev47 (UTC 2006-11-01)

Audio
Format : MPEG Audio
Format version : Version 1
Format profile : Layer 3
Codec ID : 55
Codec ID/Hint : MP3
Duration : 9mn 47s
Bit rate mode : Constant
Bit rate : 96.0 Kbps
Channel(s) : 2 channels
Sampling rate : 48.0 KHz
Resolution : 16 bits
Stream size : 6.73 MiB

Visit & Join us at:
http://tracker.ConspiracyCentral.net

Enjoy & Seed!



Tags: Rather, Reports, Israel, High, Tech, Industry, Qualit
Dan Rather Reports - Israel's High Tech Industry (High Qualit available for free download. This file was checked and may be stored on our servers or rapidshare.com. Please do not use password, key generators, crack, serial numbers of Dan Rather Reports - Israel's High Tech Industry (High Qualit it's illegal and this file will be removed if we found that.

Related Files

Downloads
Download File High End Industry Photoshop Retouching Techniques Series One DVDR-HELL-
3278 MB
618
Download File Rihanna please don't stop the music (very high quality) (très bonne qualitée)
6.7 MB
2163
Download File 51 High-Tech Practical Jokes for the Evil Genius
11 MB
6283
Download File High Tech Soul - The Creation of Techno Music xvid avi
a Documentary on the start of techno music featuring Juan Atkins, kevin saunderson,... 630 MB
3399
Download File Apress In Search of Stupidity Over 20 Years of High - Tech Marketing Disasters Jul 2003 eBook
0.5 MB
2575
Download File Europe Bikini Collection High Resolution High Quality Wallpaper Pictures
22 MB
2781
Download File The High Life - Mixed CD by Jay Skinner
Mixed CD by Jay Skinnerjayskinner70 on MySpaceemail jayskinner70THE HIGH LIFE128K... 72 MB
1957
Download File High School Musical 3 [OST] [2008 HIGH QUALITY MP3]
High School Musical 3 [OST] [2008 HIGH QUALITY MP3] 72 MB
515
Download File High School Musical 2 WITH (High Speed Download)
1 "What Time Is It"2 "Fabulous"3 "Work This Out"4... 34 MB
1133
Download File Diana Ross & The Supremes - Silver Collection
35 MB
515
Download File Wildstorm_Armageddon
Armageddon is a six issue miniseries in which each issue showcases a different... 73 MB
3399
Download File Ziggy Marley-Love Is My Religion(import) KRG gadge007
2006 release and second solo album by Bob Marley s son, the follow up to the... 84 MB
927
Download File Video_Watermark_Factory
19 MB
3296
Download File How To Stop Struggling & Start Enjoying Your Life (A) [T Harv Eker] rar
135 MB
515
Download File The Art Of Harmonious Communication [Tony Robbins, Bonnie Holscher, T Harv Eker] rar
96 MB
618
Download File Weirdsville *2007* [LiMiTED.DVDSCR.XviD-ALLiANCE]
706 MB
515
Download File Musictrade Field Recordings Vol I: Fossil Fueled Transportation
400 MB
927
Download File The White Stripes
170 MB
721
Download File [SS-Eclipse] Hayate no Gotoku! - 38 (XviD) [5F8D8C4F] avi
171 MB
515
cSoftCorp.com is a search engine designed to search files.
Copyright © 2018 cSoftCorp. All Right Reserved. Privacy | DMCA Policy