Rapidshare Files Search Engine
Add to Bookmark
| Anime | Games | Movies | Music | Other | Software |

Quantum.of.solace.TS.ENG.XviD.MeW.P2P free download


query "quantum.of.solace.ts.eng.xvid.mew.p2p" retrieved 1 strong match
Download

Download File!


Downloads: 2472
Sponsored link:     Quantum.of.solace.TS.ENG.XviD.MeW.P2P [FAST DOWNLOAD]

File Details
Name: Quantum.of.solace.TS.ENG.XviD.MeW.P2P
Saved From: rapidshare.com
Category: Movies - Unsorted
Size: 811 MB
Date Add: November 22, 2008
Files:
solace.eng.MeW.P2P.avi - 796 MB
solace.eng.MeW.P2P.Sample.avi - 15 MB
thumbs20081122113025.jpg - 0.3 MB
Comments:



Video taken from PFD release and in my opinion is the best source at present

Unfortunatly it has german subtitles for the non english speaking parts.

audio is from PFD and KiNG.of.RLZ SCREENS and SAMPLE in torrent.





Format : AVI
Format/Info : Audio Video Interleave
File size : 796 MiB
Duration : 1h 37mn
Overall bit rate : 1 142 Kbps

Video
Format : MPEG-4 Visual
Format profile : Streaming Video@L1
Format settings, BVOP : Yes
Format settings, QPel : No
Format settings, GMC : No warppoints
Format settings, Matrix : Custom
Codec ID : XVID
Codec ID/Hint : XviD
Duration : 1h 37mn
Bit rate : 1 005 Kbps
Width : 640 pixels
Height : 272 pixels
Display aspect ratio : 2.35
Frame rate : 25.000 fps
Resolution : 24 bits
Colorimetry : 4:2:0
Scan type : Progressive
Bits/(Pixel*Frame) : 0.231
Stream size : 700 MiB (88%)
Writing library : XviD 1.2.0.dev47 (UTC 2006-11-01)

Audio
Format : MPEG Audio
Format version : Version 1
Format profile : Layer 3
Codec ID : 55
Codec ID/Hint : MP3
Duration : 1h 37mn
Bit rate mode : Constant
Bit rate : 128 Kbps
Channel(s) : 2 channels
Sampling rate : 44.1 KHz
Resolution : 16 bits
Stream size : 89.1 MiB (11%)
Alignment : Split accross interleaves
Interleave, duration : 40 ms (1.00 video frame)




Tags: Quantum, solace, XviD
Quantum.of.solace.TS.ENG.XviD.MeW.P2P available for free download. This file was checked and may be stored on our servers or rapidshare.com. Please do not use key generators, password, serial numbers, crack of Quantum.of.solace.TS.ENG.XviD.MeW.P2P it's illegal and this file will be removed if we found that.

Related Files

Downloads
Download File 007.Quantum.of.Solace.2008.TS.SPANISH.XViD-SRG
Título original: Bond 22Género: Acción, Aventura, Drama, ThrillerPaís:... 738 MB
5047
Download File Quantum.Of.Solace[2008]DVDScr[XViD]-mVs
Seeking revenge for the death of his love, secret agent James Bond sets out to stop... 715 MB
206
Download File Quantum Of Solace [Spanish] TS-Screener XViD MP3 [www CienPorCie
Quantum Of Solace Dirección:Marc Forster... 738 MB
2266
Download File Quantum of Solace 2008 TELESYNC XviD-KingBen
sample, info http://www.btarena.org/movies/quantum-of-solace-2008-ts-xvid-bonkers 1010 MB
1030
Download File Quantum.of.Solace.REPACK.DVDSCR.XviD-COALiTiON
Newest James Bond 700 MB
2163
Download File James Bond 007 Quantum Of Solace TS MD XViD-RaccoOff (1S/0L)
TS 698 MB
1339
Download File Quantum Of Solace R5 LINE XviD-COALiTiON[www ilovetorrents com] [146/29]
706 MB
2781
Download File James Bond Quantum of Solace [2008] [ENG] PROPER XviD-DoNE avi
Torrent Details:Category : Movies - Action Added : 0 seconds agoSeeds : 2Peers... 700 MB
1442
Download File Quantum of Solace PROPER DVDRip XviD-NeDiVx [www ilovetorrents com]
Torrent Details:Category : Movies - Action Added : 0 seconds agoSeeds : 2Peers... 1473 MB
1854
Download File !! Programming - Write Great Code, Volume 2 Thinking Low Level Writing High Level - 2006 No Starch
4.8 MB
618
Download File RUROUNI KENSHIN SECOND SEASON (DVD 1 OF 6) - JAP/SPA
RUROUNI KENSHIN SECOND SEASON DIRECTOR Kazuhiro Furuhashi GENDER Anime Action Time... 4485 MB
618
Download File The Skids - The Absolute Game - 1980
85 MB
618
Download File zoombinis
Les Zoombinis sont de dr ocirc les de petits personnages qui ont tous leurs propres... 281 MB
1236
Download File Railroad Tycoon 3 + Coast Expansion Pack + Updates + NOCD Crack + Movies RT3 III to rar
871 MB
2884
Download File Wii Menu Music
51 MB
721
Download File World Of Warcraft The Burning Crusade-OST
Tracklist 1. The Burning Legion Main Title 3 58 2. Shards of the Exodar 4 38 3. The... 107 MB
824
Download File S21: The Khmer Rouge Killing Machine - Pt.2 [Xvid-AC3]
700 MB
1751
Download File Friday the 13th part 5 DvDrip-JESS avi
761 MB
618
Download File Forex Trading with Candlestick and Pattern pdf
4.8 MB
515
cSoftCorp.com is a search engine designed to search files.
Copyright © 2018 cSoftCorp. All Right Reserved. Privacy | DMCA Policy