Rapidshare Files Search Engine
Add to Bookmark
| Anime | Games | Movies | Music | Other | Software |

The.Lodger.2009.DVDRIP-ZEKTORM (-1S/-1L) free download


query "the.lodger.2009.dvdrip-zektorm (-1s/-1l)" retrieved 1 strong match
Download

Download File!


Downloads: 618
Sponsored link:     The.Lodger.2009.DVDRIP-ZEKTORM (-1S/-1L) [FAST DOWNLOAD]

File Details
Name: The.Lodger.2009.DVDRIP-ZEKTORM (-1S/-1L)
Saved From: rapidshare.com
Category: Anime - Denshin Mamotte Shugogetten
Size: 730 MB
Date Add: February 04, 2009
Files:
READ.hlp - 12.6 KB
Subs/The.Lodger.2009.DVDRIP-ZEKTORM.idx - 0.3 MB
Subs/The.Lodger.2009.DVDRIP-ZEKTORM.sub - 30 MB
The.Lodger.2009.DVDRIP-ZEKTORM.mp4 - 700 MB
Comments:
Title : The Lodger

Year : 2009

Genre : Drama | Horror | Mystery | Thriller

iMDB URL : http://www.imdb.com/title/tt0851530/



Complete name : The.Lodger.2009.DVDRIP-ZEKTORM.mp4

Format : MPEG-4

Format profile : Base Media

Codec ID : isom

File size : 700 MiB

Duration : 1h 35mn

Overall bit rate : 1026 Kbps

Subtitles : English, Spanish, Portuguese, Thai, French, Chinese, Korean (Format: VobSub)

Source : DVD NTSC

Encoded date : UTC 2009-01-30 16:12:16



Video

Format : AVC

Format/Info : Advanced Video Codec

Format profile : High@L4.1

Format settings, CABAC : Yes

Format settings, ReFrames : 10 frames

Codec ID : avc1

Codec ID/Info : Advanced Video Coding

Duration : 1h 35mn

Bit rate mode : Variable

Bit rate : 941 Kbps

Maximum bit rate : 8304 Kbps

Width : 720 pixels

Height : 464 pixels

Display aspect ratio : 1.881

Frame rate mode : Constant

Frame rate : 23.976 fps

Resolution : 24 bits

Colorimetry : 4:2:0

Scan type : Progressive

Bits/(Pixel*Frame) : 0.117

Stream size : 642 MiB (92%)

Title : Video

Writing library : x264 core 60 r900 a9af942



Audio

Format : AAC

Format/Info : Advanced Audio Codec

Format version : Version 4

Format profile : LC

Format settings, SBR : Yes

Format settings, PS : No

Codec ID : 40

Duration : 1h 35mn

Bit rate mode : Variable

Bit rate : 81.7 Kbps

Maximum bit rate : 107 Kbps

Channel(s) : 2 channels

Channel positions : L R

Sampling rate : 48.0 KHz

Resolution : 16 bits

Stream size : 55.7 MiB (8%)

Title : English

Language : English



Notes : Convert to DVD with Nero

Tags: Lodger, 2009, DVDRIP, ZEKTORM
The.Lodger.2009.DVDRIP-ZEKTORM (-1S/-1L) available for free download. This file was checked and may be stored on our servers or rapidshare.com. Please do not use serial numbers, password, crack, key generators of The.Lodger.2009.DVDRIP-ZEKTORM (-1S/-1L) it's illegal and this file will be removed if we found that.

Related Files

Downloads
Download File The Lodger (2009)(dvdrip)
696 MB
7313
Download File The Lodger[2009]DvDrip[Eng][Horror]-FxW
Category: Movies Subcategory: Horror Size: 695.88 megabyte ... 696 MB
4429
Download File The Lodger (2009 Eng) DVDRip DivX-LTT
706 MB
515
Download File The Lodger {2009} DVDRIP Jaybob
Category: Movies Subcategory: Crime Size: 916.54 megabyte ... 917 MB
2369
Download File The Lodger 2009 Norsub DVDrip Royskatt
Category: Movies Subcategory: Thriller Size: 876.93 megabyte ... 877 MB
3193
Download File The.Lodger.2009.Norsub.DVDrip.Royskatt
Genre:ThrillerAudio: EngelskSubs: NorskIMDB:... 877 MB
3193
Download File The Lodger 2009 DVDRip XviD-RUBY
The Lodger (2009) o Imdb -- http://www.imdb.com/title/tt0851530/ Genre -- Drama /... 735 MB
3708
Download File The.Lodger.2009.DVDRip-Morsan(SweSub)
700 MB
824
Download File The Lodger 2009 DVDRip-Morsan(SweSub) [228/164]
700 MB
1030
Download File gg BSS Gundam 00 S2 - 22 XviD Transcode
139 MB
2060
Download File Marvel Chronology 1999 11
Three more months today which conclude the comics published by Marvel in 1999. Here... 461 MB
1339
Download File [Shinsen-Subs] Kidou Senshi Gundam 00 Season 2 - 22 [1280x720 H 264 AAC][062A4B4D] mkv
351 MB
1545
Download File Desh Drohi 2009 DVDRiPDesiDhamal com avi
Desh.Drohi.2009.DVDRiP DesiDhamal.com 695 MB
1442
Download File Watchmen CAM XViD-CAMERA[www.Yestorrent.com] [1921/14277]
1405 MB
71482
Download File Futurama - Movies 1-4 DVDRip
2795 MB
8961
Download File The Inhabited Island 2008 DVDRip XviD-FiCO-[rarbg com] [1715/10875]
1391 MB
2472
Download File [Arrancar-Subs] Kidou Senshi Gundam 00 2nd Season - 022 - For the Future [480p] avi
225 MB
1236
Download File Impiegati Male DivX - Ita Mp3
Impiegati Male DivX Ita Mp3 Tntvillage.Scambioetico Visit this link http... 701 MB
1545
Download File [gSS] Gundam 00 S2 - 22 [1229A04D] mkv
405 MB
3502
cSoftCorp.com is a search engine designed to search files.
Copyright © 2018 cSoftCorp. All Right Reserved. Privacy | DMCA Policy